Pages

Monday, September 20, 2010

Inception (2010)


Image

Image


Code: 
Movie Name: Inception Year: 2010 Language: English Genre: Action | Mystery | Sci-Fi | Thriller Studio: Warner Bros. Pictures IMDB Rating: 9.2 @ 138,008 Votes IMDB Link: http://www.imdb.com/title/tt1375666/ [User Rating:9.1/10] Release Name: Inception.2010.TS.READNFO.Xvid-P2Pe Release Date: 8-10-2010 Source: Inception 2010 TS V3 XviD-PrisM Thx Matey! Format                           : AVI Format/Info                      : Audio Video Interleave Format profile                   : OpenDML File size                        : 695 MiB Duration                         : 2h 14mn Overall bit rate                 : 721 Kbps Writing application              : AVI-Mux GUI 1.17.8.3, Feb 16 201019:42:50 Video ID                               : 0 Format                           : MPEG-4 Visual Format profile                   : Advanced Simple@L5 Format settings, BVOP            : No Format settings, QPel            : No Format settings, GMC             : No warppoints Format settings, Matrix          : Default (H.263) Codec ID                         : XVID Codec ID/Hint                    : XviD Duration                         : 2h 14mn Bit rate                         : 606 Kbps Width                            : 624 pixels Height                           : 272 pixels Display aspect ratio             : 2.25:1 Frame rate                       : 25.000 fps Color space                      : YUV Chroma subsampling               : 4:2:0 Bit depth                        : 8 bits Scan type                        : Progressive Bits/(Pixel*Frame)               : 0.143 Stream size                      : 584 MiB (84%) Writing library                  : XviD 1.2.1 (UTC 2008-12-04) Audio ID                               : 1 Format                           : MPEG Audio Format version                   : Version 1 Format profile                   : Layer 3 Mode                             : Joint stereo Mode extension                   : MS Stereo Codec ID                         : 55 Codec ID/Hint                    : MP3 Duration                         : 2h 14mn Bit rate mode                    : Variable Bit rate                         : 107 Kbps Nominal bit rate                 : 128 Kbps Channel(s)                       : 2 channels Sampling rate                    : 48.0 KHz Stream size                      : 103 MiB (15%) Alignment                        : Aligned on interleaves Interleave, duration             : 24 ms (0.60 video frame) Interleave, preload duration     : 136 ms Title                            : PrisM-Inception-TSV3 Writing library                  : LAME3.98r Encoding settings                : -m j -V 4 -q 2 -lowpass 17 --abr 128 Directed by Christopher Nolan Casting: Leonardo DiCaprio ... Cobb Joseph Gordon-Levitt ... Arthur Ellen Page ... Ariadne Tom Hardy ... Eames Ken Watanabe ... Saito Dileep Rao ... Yusuf Cillian Murphy ... Robert Fischer Tom Berenger ... Peter Browning Marion Cotillard ... Mal Pete Postlethwaite ... Maurice Fischer Michael Caine ... Miles Lukas Haas ... Nash Tai-Li Lee ... Tadashi Plot Summary: Dom Cobb is a skilled thief, the absolute best in the dangerous art of extraction, stealing valuable secrets from deep within the subconscious during the dream state, when the mind is at its most vulnerable. Cobb's rare ability has made him a coveted player in this treacherous new world of corporate espionage, but it has also made him an international fugitive and cost him everything he has ever loved. Now Cobb is being offered a chance at redemption. One last job could give him his life back but only if he can accomplish the impossible-inception. Instead of the perfect heist, Cobb and his team of specialists have to pull off the reverse: their task is not to steal an idea but to plant one. If they succeed, it could be the perfect crime. But no amount of careful planning or expertise can prepare the team for the dangerous enemy that seems to predict their every move. An enemy that only Cobb could have seen coming. -------[Group Notez]--------------------------------------------------------- I wanted a version I could pop into my stand alone divx player on a single cd-r. I made a few changes, color correction, used a sharp filter, a couple small but noticable touch ups that let me fit this sucker in a 700mb package. Turned out very nice, I'm pleased and I thought I would share a nice 700mb version with everyone.


Image

Image
Image
Image


Image



http://www.fileserve.com/file/EAJKZra/incp.warezshot.com.part2.rar http://www.fileserve.com/file/K37Dr8z/incp.warezshot.com.part3.rar http://www.fileserve.com/file/4YazcnJ/incp.warezshot.com.part1.rar http://www.fileserve.com/file/Vn2VBu8/incp.warezshot.com.part4.rar

OR

http://rapidshare.com/files/420063280/incp.warezshot.com.part1.rar http://rapidshare.com/files/420063340/incp.warezshot.com.part2.rar http://rapidshare.com/files/420063405/incp.warezshot.com.part3.rar http://rapidshare.com/files/420055818/incp.warezshot.com.part4.rar
share

0 التعليقات:

Post a Comment

 
Powered by 3ahoode