Pages

Tuesday, July 21, 2009

Inception (2010)










http://www.imdb.com/title/tt1375666/
Format : MPEG-4
Format profile : Base Media / Version 2
Codec ID : mp42
File size : 412 MiB
Duration : 1h 58mn
Overall bit rate : 485 Kbps
Encoded date : UTC 2010-07-20 00:01:31
Tagged date : UTC 2010-07-20 00:02:21
Writing application : mp4creator 1.6.1d

Video
ID : 1
Format : MPEG-4 Visual
Format profile : Simple@L1
Format settings, BVOP : No
Format settings, QPel : No
Format settings, GMC : No warppoints
Format settings, Matrix : Default (H.263)
Codec ID : 20
Duration : 1h 58mn
Bit rate mode : Variable
Bit rate : 357 Kbps
Maximum bit rate : 1 583 Kbps
Width : 480 pixels
Height : 360 pixels
Display aspect ratio : 4:3
Frame rate mode : Constant
Frame rate : 24.000 fps
Resolution : 24 bits
Colorimetry : 4:2:0
Scan type : Progressive
Bits/(Pixel*Frame) : 0.086
Stream size : 303 MiB (74%)
Language : English
Encoded date : UTC 2010-07-20 00:01:31
Tagged date : UTC 2010-07-20 00:02:20

Audio
ID : 2
Format : AAC
Format/Info : Advanced Audio Codec
Format version : Version 4
Format profile : LC
Format settings, SBR : No
Codec ID : 40
Duration : 1h 58mn
Bit rate mode : Variable
Bit rate : 126 Kbps
Maximum bit rate : 152 Kbps
Channel(s) : 2 channels
Channel positions : L R
Sampling rate : 44.1 KHz
Resolution : 16 bits
Stream size : 107 MiB (26%)
Language : English
Encoded date : UTC 2010-07-20 00:02:20
Tagged date : UTC 2010-07-20 00:02:21












Code:
http://www.megaupload.com/?d=CN29CIMT
http://www.megaupload.com/?d=OL6Q252I
http://www.megaupload.com/?d=0FO3EK51


Code:
http://hotfile.com/dl/56408668/cee33c7/SmartWarez.Org_I.part1.rar.html
http://hotfile.com/dl/56409121/c75e4bb/SmartWarez.Org_I.part2.rar.html
http://hotfile.com/dl/56409151/eb1a9ea/SmartWarez.Org_I.part3.rar.html


Code:
http://www.fileserve.com/file/AYNrHzm/SmartWarez.Org_I.part1.rar
http://www.fileserve.com/file/mnPQRWG/SmartWarez.Org_I.part2.rar
http://www.fileserve.com/file/hcEjBGp/SmartWarez.Org_I.part3.rar
share

0 التعليقات:

Post a Comment

 
Powered by 3ahoode