Pages

Monday, July 16, 2001

Shrek Forever After 2010 TS IMAGiNE

Shrek Forever After 2010 TS IMAGiNE

Image

Quote:
*********** **** **** *** ******** *********** **** *** **********
*+* +*+*+* *+*+*+ *+* *+* *+* *+* *+* *+*+* *+* *+*
+*+ +*+ +*+*+ +*+ +*+ +*+ +*+ +*+ *+*+*+ +*+ +*+
+$+ +$+ +*+ +$+ +$++*++$++* *$* +$+ +$+ +*+ +$+ +$++*++$
+$+ +$+ +$+ +$+ +$+ +$+ +$+$ +$+ +$+ +$+$+$ +$+
$+$ $+$ $+$ $+$ $+$ $+$ $+$ $+$ $+$ $+$+$ $+$
$$$$$$$$$$$ $$$ $$$ $$$ $$$ $$$$$$$$ $$$$$$$$$$$ $$$ $$$$ $$$$$$$$$$




Another Fine Release Brought to you from - IMAGiNE
http://imaginegroup.me/

********************************************************************************
************************************
Shrek Forever After TS XViD - IMAGiNE
********************************************************************************
************************************
6.7/10
Video Codec.......:XVID Release Date......:24/05/10
Audio Codec.......:MP3 Theatre Date......:21/05/10
Audio Bitrate.....:128 Runtime...........:1h 18mn
Subtitles.........:NIL Language..........:ENGLISH
Resolution...... 662 x 280 IMDb URL..........:http://www.imdb.com/title/tt0892791/ [User Rating:6.7/10]


DETAILS:

Video
ID : 0
Format : MPEG-4 Visual
Format profile : Advanced Simple@L5
Format settings, BVOP : Yes
Format settings, QPel : No
Format settings, GMC : No warppoints
Format settings, Matrix : Default (MPEG)
Muxing mode : Packed bitstream
Codec ID : XVID
Codec ID/Hint : XviD
Duration : 1h 18mn
Bit rate : 2 362 Kbps
Width : 662 pixels
Height : 280 pixels
Display aspect ratio : 2.35:1
Frame rate : 25.000 fps
Resolution : 8 bits
Colorimetry : 4:2:0
Scan type : Progressive
Bits/(Pixel*Frame) : 0.510
Stream size : 1.29 GiB (94%)
Writing library : XviD 1.2.1 (UTC 2008-12-04)

Audio
ID : 1
Format : MPEG Audio
Format version : Version 1
Format profile : Layer 3
Codec ID : 55
Codec ID/Hint : MP3
Duration : 1h 18mn
Bit rate mode : Constant
Bit rate : 128 Kbps
Channel(s) : 2 channels
Sampling rate : 44.1 KHz
Stream size : 71.7 MiB (5%)
Alignment : Split accross interleaves
Interleave, duration : 40 ms (1.00 video frame)
Interleave, preload duration : 500 ms


NOTES:

IMAGiNE bringing you another release..... Shrek Forever After

First off many thanks to Relizlab for the video source and PrisM for the line audio... Thanks both
Well we balanced the colours out,made it a touch sharper and also used a smoother and changed the brightness, contrast and chroma.
Then it was just syncing PrisM's audio to it. Its surely not the best source out, but is watchable for now.


Screen:
Image

Image

Download:

share

0 التعليقات:

Post a Comment

 
Powered by 3ahoode